#TITLE:Misirlou;
#SUBTITLE:;
#ARTIST:Dick Dale;
#TITLETRANSLIT:;
#SUBTITLETRANSLIT:;
#ARTISTTRANSLIT:;
#CREDIT:;
#BANNER:bn.PNG;
#BACKGROUND:bg.PNG;
#LYRICSPATH:;
#CDTITLE:rr-ddr-v3.PNG;
#MUSIC:Misirlou.mp3;
#OFFSET:0.000;
#SAMPLESTART:65.140;
#SAMPLELENGTH:24.000;
#SELECTABLE:YES;
#BPMS:0.000=238.000,16.000=246.000,24.000=234.000,32.000=244.000,40.000=232.000,46.000=198.000,58.000=204.000,66.000=210.000,74.000=190.000,82.000=208.000,88.000=192.000,98.000=196.000,114.000=198.000,122.000=192.000,154.000=198.000,160.000=194.000,178.000=196.000,186.000=202.000,194.000=200.000,222.000=204.000,230.000=198.000,254.000=202.000,262.000=194.000,264.000=196.000,294.000=200.000,302.000=198.000,318.000=194.000,334.000=198.000,350.000=196.000,382.000=202.000,398.000=198.000,422.000=204.000,466.000=202.000,474.000=200.000,482.000=202.000,490.000=194.000,498.000=188.000,502.000=184.000,506.000=180.000,510.000=156.000,514.000=154.000,522.000=146.000;
#STOPS:;
#BGCHANGES:;
// cache tags:
#FIRSTBEAT:11.000;
#LASTBEAT:527.000;
#SONGFILENAME:Songs/Music V.I.P ^_^/(RaikouRider) Misirlou/Misirlou.sm;
#HASMUSIC:1;
#HASBANNER:1;
#MUSICLENGTH:161.227;
// end cache tags

//---------------dance-single - Oni----------------
#NOTES:
     dance-single:
     Oni:
     Challenge:
     18:
     1.000,1.000,0.881,0.068,1.000,1236.000,142.000,11.000,0.000,64.000:
0000
0000
0000
0000
,
0000
0000
0000
0000
,
0000
0000
0000
0202
,
0000
0303
0101
0101
0101
0101
0101
0101
0101
0101
0101
0101
,
1000
1000
1000
1000
1000
1000
1000
1000
1000
1000
1000
1000
,
1000
1000
0010
0010
0010
0001
0001
0001
0100
0100
0100
0010
,
0010
0001
0001
0001
0100
0100
0100
1000
1000
1000
0001
0001
,
0010
0010
1000
1000
0010
0010
0100
0100
0100
0010
0010
0010
,
0100
0100
0100
0100
1000
1000
1000
0001
0001
0001
0010
0010
,
0010
0100
0100
0100
0001
0001
0001
0010
0010
0010
0100
0100
,
0100
0001
0001
0001
0010
0010
0010
0100
0100
0100
1000
1000
,
1000
0001
0001
0001
1000
1000
1000
0000
0000
0111
0000
0000
,
1000
0111
1000
0111
,
1000
0111
1000
0111
,
1000
0000
0111
0000
1000
0000
1100
1000
,
1100
0000
1100
0000
0000
0000
0100
0010
,
0001
0010
0001
0010
0100
0000
0100
1000
,
0100
1100
0001
0010
,
0100
0000
1000
0000
0100
0000
0100
1000
,
0100
0000
0110
0000
0000
1000
0000
0100
,
0010
0000
0001
0010
0100
0000
0100
1000
,
0100
0220
0000
0000
,
0330
0100
1000
0000
1000
0000
1110
1110
,
1000
1000
1110
1110
1000
1000
1110
1110
,
0100
0111
1000
0110
,
0001
0001
0001
0001
0001
0001
0001
0001
0010
0010
0010
0010
0010
0010
0010
0010
,
0100
0100
0100
0100
0100
0100
0100
0100
1000
0000
1000
0000
1110
0000
1110
0000
,
1000
1000
1110
1110
1000
1000
1110
1110
,
0100
0111
0100
0110
,
0001
0001
0001
0001
0001
0001
0001
0001
0010
0010
0010
0010
0010
0010
0010
0010
,
0100
0100
0100
0100
0100
0100
0100
0100
1000
0000
0000
0000
0111
0000
0111
0000
,
0000
0100
0001
0010
0000
0000
0110
0010
,
0001
0000
0010
0100
1000
0000
1110
1110
,
0000
1000
0010
0100
0000
0000
1100
0100
,
0010
0000
1100
0000
1000
0000
1101
1101
,
0000
1000
0001
0100
0000
0000
1000
0100
,
0010
0000
0000
0000
1110
0000
0000
0000
1000
1000
1000
1000
0001
0001
0001
0001
,
0010
0010
0010
0010
0100
0100
0100
0100
0001
0001
0001
0001
0010
0010
0010
0010
,
0100
0100
0100
0100
1000
1000
1000
1000
0100
0000
0000
0000
0111
0000
0111
0000
,
0000
0100
0001
0010
0000
0000
0110
0010
,
0001
0000
0010
0100
1000
0000
1110
1110
,
0000
1000
0010
0100
0000
0000
1100
0100
,
0010
0000
0010
0100
1000
0000
1101
1101
,
0000
1000
0001
0100
0000
0000
1000
0100
,
0010
0000
0000
0000
1110
0000
0000
0000
1000
1000
1000
1000
1000
1000
1000
1000
,
1000
1000
1000
1000
1000
1000
1000
1000
0010
0010
1000
1000
1000
1000
1000
1000
,
1000
1000
1000
1000
1000
1000
1000
1000
0010
0010
1000
1000
0001
0001
1000
1000
,
0100
0100
1000
1000
0010
0010
1000
1000
0001
0001
1000
1000
0100
0100
1000
1000
,
0001
0001
1000
1000
0010
0010
1000
1000
0100
0100
1000
1000
0001
0001
1000
1000
,
0010
0010
1000
1000
0100
0100
1000
1000
0010
0010
1000
1000
1000
1000
0100
0100
,
1000
1000
1000
1000
0001
0001
1000
1000
0001
0001
1000
1000
0010
0010
1000
1000
,
0100
0100
1000
1000
0001
0001
1000
1000
0010
0010
1000
1000
0100
0100
1000
1000
,
0001
0001
1000
1000
0010
0010
1000
1000
0100
0100
1000
1000
0100
0100
1000
1000
,
0001
0001
1000
1000
0010
0010
1000
1000
0110
0000
0000
0000
0000
0000
0000
0000
,
0000
0000
0000
0000
,
0001
0000
0000
0000
0100
0000
0000
0000
1000
1000
1000
1000
1000
1000
0100
0100
,
0010
0010
0010
0010
1000
1000
1000
1000
0100
0100
0100
0100
0100
0100
0010
0000
,
0001
0000
0000
0000
0010
0000
0000
0000
0200
0000
0000
0300
0100
0000
0000
0000
,
0001
0001
0001
0001
0001
0001
0001
0001
0010
0010
0010
0010
0010
0010
0010
0010
,
0100
0100
0100
0100
0100
0100
0100
0100
1000
1000
1000
1000
1000
1000
0100
0100
,
0010
0010
0010
0010
1000
1000
1000
1000
0100
0100
0100
0100
0010
0010
0010
0010
,
0001
0001
0001
0001
0010
0010
0010
0010
0200
0000
0000
0000
0300
0100
0000
0000
,
0001
0001
0001
0001
0001
0001
0001
0001
0010
0010
0010
0010
0010
0010
0010
0010
,
0100
0100
0100
0100
0100
0100
0100
0100
0001
0000
0000
0000
0010
0000
0001
0000
,
0010
0001
0010
0000
0100
0000
0000
0000
0100
0010
0100
0000
1000
0000
0100
0000
,
0100
0000
1000
0010
0100
0000
0010
0000
,
0001
0001
0001
0001
0001
0001
0001
0001
0010
0010
0010
0010
0010
0010
0010
0010
,
0100
0100
0100
0100
0100
0100
0100
0100
0100
0001
0000
0000
0100
0000
0010
0000
,
0100
0010
0100
0000
1000
0000
0000
0000
0010
0000
0100
0000
0000
0000
0010
0000
,
0100
0000
0100
1000
0000
1010
0000
0000
,
1010
0000
0000
0000
0100
0000
1110
0000
0000
0000
1110
0000
0001
0001
0001
0001
,
0010
0010
0010
0010
0100
0100
0100
0100
1000
1000
1000
1000
1000
1000
0100
0100
,
0010
0010
0010
0010
1000
1000
1000
1000
0100
0100
0100
0100
0010
0010
0010
0010
,
0001
0001
0001
0001
0010
0010
0010
0010
0200
0000
0000
0000
0300
0010
0010
0010
,
0001
0001
0001
0001
0001
0001
0001
0001
0010
0010
0010
0010
0010
0010
0010
0010
,
0100
0100
0100
0100
0100
0100
0100
0100
1000
1000
1000
1000
1000
1000
0100
0100
,
0010
0010
0010
0010
1000
1000
1000
1000
0100
0100
0100
0100
0010
0010
0010
0010
,
0001
0001
0001
0001
0010
0010
0010
0010
0100
0000
1000
0000
0000
0000
0100
0000
,
1000
0000
0100
1000
0000
0100
1000
0100
,
1000
0000
0100
0000
0100
0000
0100
0000
0001
0001
0001
0001
0010
0010
0001
0001
,
0010
0000
0000
0000
0100
0000
0000
0000
0010
0000
0100
0010
0100
0000
0010
0000
,
0100
1000
0001
0100
,
0001
0001
0001
0001
0001
0001
0001
0001
0010
0010
0010
0010
0010
0010
0010
0010
,
0100
0100
0100
0100
0100
0100
0100
0100
0100
0010
0000
0000
0100
0000
0010
0000
,
0100
0000
1000
0000
0100
1000
0000
0100
,
1000
0000
1000
1000
0000
1110
0000
1000
,
1110
0000
1000
1110
0000
1110
0000
1110
,
0000
0000
1110
0000
1000
0000
0000
0000
0100
0100
0100
0100
0100
0100
0100
0100
,
0100
0100
0100
0100
0100
0100
0100
0100
0100
0100
0100
0100
0100
0100
0100
0100
,
1000
1000
1000
1000
0100
0100
0100
0100
0010
0010
0010
0010
0010
0010
0010
0010
,
0010
0010
0010
0010
0010
0010
0010
0010
0010
0010
0010
0010
0010
0010
0010
0010
,
0100
0100
0100
0100
0010
0010
0010
0010
0001
0001
0001
0001
0001
0001
0001
0001
,
0010
0010
0010
0010
0001
0001
0001
0001
1000
1000
1000
1000
1000
1000
1000
1000
,
0001
0001
0001
0001
1000
1000
1000
1000
0100
0100
0100
0100
0100
0100
0100
0100
,
0100
0100
0100
0100
0100
0100
0100
0100
0200
0000
0000
0000
0000
0000
0000
0000
,
0000
0000
0000
0000
0000
0300
0000
0000
0001
0000
0000
0000
0010
0000
0001
0000
,
0010
0001
0010
0000
0100
0000
0000
0000
0010
0000
0100
0000
0000
0000
0010
0000
,
0100
0001
0010
1000
,
0001
0001
0001
0001
0010
0010
0010
0010
0100
0100
0100
0100
1000
1000
1000
1000
,
0100
0100
0100
0100
0100
0100
0100
0100
0010
0000
0000
0000
0100
0000
0010
0000
,
0001
0010
0001
0000
0100
0000
0000
0000
0100
0000
1000
0000
0000
0000
0100
0000
,
1000
0001
0000
0100
1000
1110
0000
1010
,
1010
0000
1010
2020
0000
0000
0000
0000
,
0000
0000
0000
0000
3030
0000
0000
0000
1000
1000
1000
1000
1000
1000
1000
1000
,
0010
0010
1000
1000
1000
1000
1000
1000
0010
0010
1000
1000
1000
1000
1000
1000
,
0010
0010
1000
1000
1000
1000
1000
1000
0100
0100
1000
1000
0001
0001
1000
1000
,
0010
0010
1000
1000
0100
0100
1000
1000
0001
0001
1000
1000
0010
0010
1000
1000
,
0100
0100
1000
1000
0001
0001
1000
1000
0010
0010
1000
1000
0100
0100
1000
1000
,
0001
0001
1000
1000
0010
0010
1000
1000
1010
0000
0000
0000
1010
0000
0000
0000
,
1010
0000
1000
0001
0101
0000
0101
0000
,
0101
0000
0010
0100
1010
0000
1010
0000
,
1010
0000
1000
1000
0101
0000
0101
0000
,
0101
0000
0010
0100
1010
0000
1010
0000
,
1010
0000
1000
1000
0101
0000
0101
0000
,
0101
0000
0000
0000
0010
0000
0100
0000
1010
0000
0000
0000
0001
0001
0001
0001
,
0010
0010
0010
0010
0010
0010
0010
0010
0100
0100
0100
0100
0100
0100
0100
0100
,
1000
1000
1000
1000
1000
1000
1000
1000
1010
0000
0000
0000
1010
0000
0000
0000
,
1010
0000
1000
1000
0101
0000
0101
0000
,
0101
0000
0010
0100
1010
0000
1010
0000
,
1010
0000
1000
1000
0101
0000
0101
0000
,
0101
0000
0010
0100
1010
0000
1010
0000
,
1010
0000
1000
1000
0101
0000
0101
0000
,
0101
0000
0000
0000
0010
0000
0100
0000
1010
0000
0101
0101
0101
0101
0101
0101
,
0101
0100
0010
0001
0010
0100
1000
0001
,
0010
0100
1000
0001
1000
0010
0100
0001
,
0001
0000
0010
0000
0100
0000
1000
0000
1110
1110
1110
1110
1110
1110
1110
1110
,
1110
1110
1110
1110
1110
1110
1110
1110
1110
1110
1110
1110
0000
0000
0000
0000
,
0110
0000
0011
0000
,
0111
0000
0000
0000
1000
0000
0000
0000
0010
0010
0010
0010
0010
1000
0000
0000
,
0100
0010
0000
0010
0010
0000
0010
0000
0010
0000
0010
0000
0001
0000
0010
0000
,
0100
1000
0001
0010
0100
1000
0001
0010
0100
0000
0000
0000
2000
0000
0000
0000
,
0000
0000
0000
3000
;

//---------------dance-single - Heavy----------------
#NOTES:
     dance-single:
     Heavy:
     Hard:
     12:
     1.000,1.000,0.651,0.068,1.000,1236.000,105.000,11.000,0.000,44.000:
0000
0000
0000
0000
,
0000
0000
0000
0000
,
0000
0000
0000
0202
,
0000
0303
0100
0001
0100
0001
0100
0001
0100
0001
0100
0001
,
1000
0100
1000
0100
1000
0100
1000
0100
1000
0100
1000
0100
,
1000
0100
0010
0100
0010
0001
0010
0100
0010
0100
0010
0001
,
0010
0100
0010
0001
0010
0001
0010
0100
0010
0001
0010
0100
,
1000
0100
0010
0100
0001
0100
0010
0100
1000
0100
1000
0100
,
0010
0100
1000
0100
0010
0100
0010
0001
0010
0100
0010
0100
,
1000
0001
0010
0100
0010
0100
1000
0001
0010
0100
0010
0100
,
1000
0001
0010
0100
0010
0100
1000
0001
0010
0100
0010
0100
,
1000
0001
0010
0100
0010
0100
1000
0000
0000
0111
0000
0000
,
1000
0111
1000
0111
,
1000
0111
1000
0111
,
1000
0000
0111
0000
1000
0000
1100
1000
,
1100
0000
1100
0000
0000
0000
0100
0010
,
0001
0010
0001
0010
0100
0000
0100
1000
,
0100
1100
0001
0010
,
0100
0000
1000
0000
0100
0000
0100
1000
,
0100
0000
0110
0000
0000
1000
0000
0100
,
0010
0000
0001
0010
0100
0000
0100
1000
,
0100
0220
0000
0000
,
0330
0100
1000
0000
1000
0000
1110
1110
,
1000
1000
1110
1110
1000
1000
1110
1110
,
0100
0111
1000
0110
,
0001
0010
0001
0010
0001
0010
0001
0010
0100
0010
0100
0010
0100
0010
0100
0010
,
0100
1000
0100
1000
0100
1000
0100
1000
0100
0000
1000
0000
1110
0000
1110
0000
,
1000
1000
1110
1110
1000
1000
1110
1110
,
0100
0111
0100
0110
,
0001
0010
0001
0010
0001
0010
0001
0010
0100
0010
0100
0010
0100
0010
0100
0010
,
0100
1000
0100
1000
0100
1000
0100
1000
0100
0000
0000
0000
0111
0000
0111
0000
,
0000
0100
0001
0010
0000
0000
0110
0010
,
0001
0000
0010
0100
1000
0000
1110
1110
,
0000
1000
0010
0100
0000
0000
1100
0100
,
0010
0000
1100
0000
1000
0000
1101
1101
,
0000
1000
0001
0100
0000
0000
1000
0100
,
0010
0000
0000
0000
1110
0000
0000
0000
0001
0010
0001
0010
0100
0010
0100
0010
,
0100
1000
0100
1000
0001
1000
0001
1000
0001
0010
0001
0010
0100
0010
0100
1000
,
0100
1000
0100
1000
0001
1000
0001
1000
0100
0000
0000
0000
0111
0000
0111
0000
,
0000
0100
0001
0010
0000
0000
0110
0010
,
0001
0000
0010
0100
1000
0000
1110
1110
,
0000
1000
0010
0100
0000
0000
1100
0100
,
0010
0000
0010
0100
1000
0000
1101
1101
,
0000
1000
0001
0100
0000
0000
1000
0100
,
0010
0000
0000
0000
1110
0000
0000
0000
1000
0100
1000
0100
1000
0100
1000
0100
,
1000
0100
1000
0100
1000
0100
1000
0010
1000
0100
1000
0100
1000
0100
1000
0100
,
1000
0100
1000
0100
1000
0100
1000
0010
1000
0010
1000
0100
1000
0100
1000
0001
,
1000
0001
1000
0010
1000
0010
1000
0100
1000
0100
1000
0010
1000
0010
1000
0100
,
1000
0100
1000
0001
1000
0001
1000
0010
1000
0010
1000
0100
1000
0100
1000
0001
,
1000
0001
1000
0010
1000
0010
1000
0100
1000
0100
1000
0010
1000
0010
1000
0100
,
1000
0100
1000
0001
1000
0001
1000
0010
1000
0010
1000
0100
1000
0100
1000
0001
,
1000
0001
1000
0010
1000
0010
1000
0100
1000
0100
1000
0001
1000
0001
1000
0010
,
1000
0010
1000
0100
1000
0100
1000
0001
1000
0001
1000
0010
1000
0010
1000
0100
,
1000
0100
1000
0100
1000
0001
1000
0001
1010
0000
0000
0000
0000
0000
0000
0000
,
0000
0000
0000
0000
,
0001
0000
0000
0000
0100
0000
0000
0000
1000
0100
1000
0100
1000
0100
0010
0001
,
0100
0010
0100
0010
1000
0100
1000
0100
0010
0001
0010
0001
0010
0001
0100
0000
,
0001
0100
2000
3100
,
0010
0001
0010
0001
0010
0001
0010
0001
0100
0010
0100
0010
0100
0010
0100
0010
,
1000
0100
1000
0100
1000
0100
1000
0100
1000
0100
1000
0100
1000
0100
0010
0100
,
0001
0010
0001
1000
0100
1000
0100
0010
0100
0010
0100
0001
0010
0001
1000
0001
,
1000
0001
0010
0001
0010
0001
0100
0010
0200
0000
0000
0000
0300
0100
0000
0000
,
0001
0010
0001
0010
0001
0010
0001
0010
0100
0010
0100
0010
0100
0010
0100
0010
,
0100
1000
0100
1000
0100
1000
0100
1000
0001
0000
0000
0000
0010
0000
0001
0000
,
0010
0001
0010
0000
0100
0000
0000
0000
0100
0010
0100
0000
1000
0000
0100
0000
,
0100
0000
1000
0010
0100
0000
0010
0000
,
0001
0010
0001
0010
0001
0010
0001
0010
0100
0010
0100
0010
0100
0010
0100
0010
,
0100
1000
0100
1000
0100
1000
0100
1000
0100
0010
0000
0000
0100
0000
0010
0000
,
0100
0010
0100
0000
1000
0000
0000
0000
0010
0000
0100
0000
0000
0000
0010
0000
,
0100
0000
0100
1000
0000
1010
0000
0000
,
1010
0000
0000
0000
0100
0000
1110
0000
0000
0000
1110
0000
0010
0001
0010
0001
,
0100
0010
0100
0010
1000
0100
1000
0100
1000
0100
1000
0100
1000
0100
0010
0100
,
0001
0010
0001
0010
0100
1000
0100
1000
0010
0100
0010
0100
0010
0100
0001
0010
,
0100
0010
0100
0010
0001
0010
0001
0010
0200
0000
0000
0000
0300
0001
0010
0001
,
0010
0100
0010
0100
0010
0100
0010
0100
0010
1000
0100
1000
0100
1000
0100
1000
,
0100
1000
0001
1000
0001
1000
0001
1000
0100
1000
0100
1000
0100
0010
0100
0001
,
0010
0001
0010
0100
1000
0100
1000
0010
0100
0010
0100
0001
0010
0001
0010
0100
,
0010
0100
0010
0001
0010
0001
0010
0001
0100
0000
1000
0000
0000
0000
0100
0000
,
1000
0000
0100
1000
0000
0100
1000
0100
,
1000
0000
0100
0000
0100
0000
0100
0000
0001
0010
0001
0010
0100
0010
0001
0010
,
0100
0000
0000
0000
0100
0000
0000
0000
0010
0000
0100
0010
0100
0000
0010
0000
,
0100
1000
0001
0100
,
0001
0010
0001
0010
0001
0010
0001
0010
0100
0010
0100
0010
0100
0010
0100
0010
,
0100
1000
0100
1000
0100
1000
0100
1000
0100
0010
0000
0000
0100
0000
0010
0000
,
0100
0000
1000
0000
0100
1000
0000
0100
,
1000
0000
1000
1000
0000
1110
0000
1000
,
1110
0000
1000
1110
0000
1110
0000
1110
,
0000
0000
1110
0000
1000
0000
0000
0000
0100
0010
0100
0010
0100
0010
0100
0010
,
0100
0010
0100
0010
0100
0010
0100
0010
0100
0010
0100
0010
0100
0010
0100
0010
,
0100
1000
0100
1000
0100
0010
0100
0010
0100
0010
0001
0010
0001
0010
0001
0010
,
0001
0010
0001
0010
0001
0010
0001
0010
0001
0010
0001
0010
0001
0010
0001
0010
,
0100
0010
0100
0010
0001
0010
0001
1000
0001
1000
0001
1000
0001
1000
0001
0010
,
0001
0010
0001
1000
0001
1000
0001
1000
0100
1000
0100
1000
0100
1000
0100
1000
,
0001
1000
0001
1000
0100
1000
0100
0010
0100
0010
0100
0010
0100
0010
0100
0010
,
0100
0010
0100
0010
0100
0010
0100
0010
0200
0000
0000
0000
0000
0000
0000
0000
,
0000
0000
0000
0000
0000
0300
0000
0000
0001
0000
0000
0000
0010
0000
0001
0000
,
0010
0001
0010
0000
0100
0000
0000
0000
0010
0000
0100
0000
0000
0000
0010
0000
,
0100
0001
0010
1000
,
0001
0010
0001
0010
0100
0010
0100
1000
0100
1000
0100
1000
0001
1000
0001
0100
,
0001
0100
0001
0100
0001
0100
0001
0100
0010
0000
0000
0000
0100
0000
0010
0000
,
0001
0010
0001
0000
0100
0000
0000
0000
0100
0000
1000
0000
0000
0000
0100
0000
,
1000
0001
0000
0100
1000
1110
0000
1010
,
1010
0000
1010
2020
0000
0000
0000
0000
,
0000
0000
0000
0000
3030
0000
0000
0000
1000
0100
1000
0100
1000
0100
1000
0010
,
1000
0100
1000
0100
1000
0100
1000
0010
1000
0100
1000
0100
1000
0100
1000
0010
,
1000
0100
1000
0100
1000
0100
1000
0010
1000
0010
1000
0100
1000
0100
1000
0001
,
1000
0001
1000
0010
1000
0010
1000
0100
1000
0100
1000
0010
1000
0010
1000
0100
,
1000
0100
1000
0001
1000
0001
1000
0010
1000
0010
1000
0100
1000
0100
1000
0001
,
1000
0001
1000
0010
1000
0010
1000
0100
1010
0000
0000
0000
1010
0000
0000
0000
,
1010
0000
1000
0001
0101
0000
0101
0000
,
0101
0000
0010
0100
1010
0000
1010
0000
,
1010
0000
1000
1000
0101
0000
0101
0000
,
0101
0000
0010
0100
1010
0000
1010
0000
,
1010
0000
1000
1000
0101
0000
0101
0000
,
0101
0000
0000
0000
0010
0000
0100
0000
1010
0000
0000
0000
0001
0010
0001
0010
,
0100
0010
0100
0010
0100
0010
0100
0010
0100
1000
0100
1000
0100
1000
0100
1000
,
0001
1000
0001
1000
0001
1000
0001
1000
1010
0000
0000
0000
1010
0000
0000
0000
,
1010
0000
1000
1000
0101
0000
0101
0000
,
0101
0000
0010
0100
1010
0000
1010
0000
,
1010
0000
1000
1000
0101
0000
0101
0000
,
0101
0000
0010
0100
1010
0000
1010
0000
,
1010
0000
1000
1000
0101
0000
0101
0000
,
0101
0000
0000
0000
0010
0000
0100
0000
1010
0000
0001
0100
0001
0100
0001
0100
,
0001
0100
0010
0001
0010
0100
1000
0001
,
0010
0100
1000
0001
1000
0010
0100
0001
,
0001
0000
0010
0000
0100
0000
1000
0000
1000
0001
1000
0001
1000
0001
1000
0001
,
1000
0001
1000
0001
1000
0001
1000
0001
1000
0001
1000
0001
0000
0000
0000
0000
,
0110
0000
0011
0000
,
0111
0000
0000
0000
1000
0000
0000
0000
0010
0100
0010
0100
0010
1000
0000
0000
,
0100
0010
0000
0010
0100
0000
0010
0000
0010
0000
0010
0000
0001
0000
0010
0000
,
0100
1000
0001
0010
0100
1000
0001
0010
0100
0000
0000
0000
2000
0000
0000
0000
,
0000
0000
0000
3000
;
